PRINCE ZAMAN KAKAR

EAch AnD EveRy ThinGs in ThiS SiTe
 
HomeHome  RegisterRegister  Log inLog in  

Share | 
 

 [movie]Prince of Persia: The Sands of Time (2010) [TS XVID]

View previous topic View next topic Go down 
AuthorMessage
-PRINCE-
Administrator
Administrator


Posts : 83
Join date : 2010-08-17

PostSubject: [movie]Prince of Persia: The Sands of Time (2010) [TS XVID]   Sun Sep 12, 2010 1:28 am





Runtime...........:1h 44mn
Video
Format : MPEG-4 Visual
Format profile : Streaming Video@L1
Format settings, BVOP : Yes
Format settings, QPel : No
Format settings, GMC : No warppoints
Format settings, Matrix : Default
Muxing mode : Packed bitstream
Codec ID : XVID
Codec ID/Hint : XviD
Duration : 1h 43mn
Bit rate : 1 759 Kbps
Width : 640 pixels
Height : 272 pixels
Display aspect ratio : 2.35
Frame rate : 25.000 fps
Resolution : 24 bits
Colorimetry : 4:2:0
Scan type : Progressive
Bits/(Pixel*Frame) : 0.404
Stream size : 1.28 GiB (93%)
Writing library : XviD 50
Audio
Format : MPEG Audio
Format version : Version 1
Format profile : Layer 3
Codec ID : 55
Codec ID/Hint : MP3
Duration : 1h 43mn
Bit rate mode : Constant
Bit rate : 128 Kbps
Channel(s) : 2 channels
Sampling rate : 44.1 KHz
Resolution : 16 bits
Video delay : 9ms
Stream size : 94.9 MiB (7%)
Alignment : Split accross interleaves
Interleave, duration : 40 ms (1.00 video frame)
Interleave, preload duration : 498 ms

SCREENSHOTS:







Tracker:
[You must be registered and logged in to see this link.]


File List:

File: Prince of Persia The Sands of Time TS XViD IMAGiNE.avi
Size:1.38 GB

Download Link:

[You must be registered and logged in to see this link.]
Back to top Go down
 
[movie]Prince of Persia: The Sands of Time (2010) [TS XVID]
View previous topic View next topic Back to top 
Page 1 of 1
 Similar topics
-
» Entering a time stamp in comment / text box?
» 2010 Bulwer-Lytton Fiction Contest Winners
» It's Time to Tab™ Video Contest
» How to set Wait time for the command(ClickandWait)
» Steps duration time in IDE

Permissions in this forum:You cannot reply to topics in this forum
PRINCE ZAMAN KAKAR  :: (¯`·¸•´¯) Entertainment Section (¯`·¸•´¯) :: - ––––•(-• Hollywood Torrent Movies •-)•–––– --
Jump to: