PRINCE ZAMAN KAKAR

EAch AnD EveRy ThinGs in ThiS SiTe
 
HomeHome  RegisterRegister  Log inLog in  

Share | 
 

 [MOVIE] Remember Me (2010) [DVDRIP]

View previous topic View next topic Go down 
AuthorMessage
-PRINCE-
Administrator
Administrator
avatar

Posts : 83
Join date : 2010-08-17

PostSubject: [MOVIE] Remember Me (2010) [DVDRIP]   Sun Sep 12, 2010 1:31 am


Detail's


Seeders: 9792
Leechers: 8252

Format : AVI
Format/Info : Audio Video Interleave
Format profile : OpenDML
File size : 1.26 GiB
Duration : 1h 52mn
Overall bit rate : 1 603 Kbps
Writing application : VirtualDubMod 1.5.10.2 (build 2542/release)
Writing library : VirtualDubMod build 2542/release
Original source form : MAX TORRENTZ
Copyright : SIGISMUNT

Video
ID : 0
Format : MPEG-4 Visual [DVD]
Format profile : AdvancedSimple@L5
Format settings, BVOP : Yes
Format settings, QPel : No
Format settings, GMC : No warppoints
Format settings, Matrix : Custom
Codec ID : XVID
Codec ID/Hint : XviD
Duration : 1h 52mn
Bit rate : 1 213 Kbps
Width : 720 pixels
Height : 400 pixels
Display aspect ratio : 16:9
Frame rate : 23.976 fps
Resolution : 24 bits
Colorimetry : 4:2:0
Scan type : Progressive
Bits/(Pixel*Frame) : 0.176
Stream size : 975 MiB (76%)
Writing library : XviD 1.2.1 (UTC 2008-12-04)

Audio
ID : 1
Format : AC-3
Format/Info : Audio Coding 3
Codec ID : 2000
Duration : 1h 52mn
Bit rate mode : Constant
Bit rate : 384 Kbps
Channel(s) : 6 channels
Channel positions : Front: L C R, Surround: L R, LFE
Sampling rate : 48.0 KHz
Stream size : 309 MiB (24%)
Alignment : Aligned on interleaves
Interleave, duration : 64 ms (1.53 video frames)
Interleave, preload duration : 192 ms

Screen Shots:





Tracker:
[You must be registered and logged in to see this link.]

Download Link:
[You must be registered and logged in to see this link.]

Back to top Go down
 
[MOVIE] Remember Me (2010) [DVDRIP]
View previous topic View next topic Back to top 
Page 1 of 1
 Similar topics
-
» Hanna-Adapt or Die 2011-DVDRip
» 2010 Bulwer-Lytton Fiction Contest Winners
» Koj yog leej twg Movie Kaus Lim, tu siab heev...
» Dab Nrhiav Niam Txiv , Movie Thaib, zoo li zoo thiab.
» Kung Fu Dab Toj Ntxas Movie Suav

Permissions in this forum:You cannot reply to topics in this forum
PRINCE ZAMAN KAKAR  :: (¯`·¸•´¯) Entertainment Section (¯`·¸•´¯) :: - ––––•(-• Hollywood Torrent Movies •-)•–––– --
Jump to: