PRINCE ZAMAN KAKAR

EAch AnD EveRy ThinGs in ThiS SiTe
 
HomeHome  RegisterRegister  Log inLog in  

Share | 
 

 [movie] Green Zone (2010) [DVDRip XviD-MAX]

View previous topic View next topic Go down 
AuthorMessage
-PRINCE-
Administrator
Administrator
avatar

Posts : 83
Join date : 2010-08-17

PostSubject: [movie] Green Zone (2010) [DVDRip XviD-MAX]   Sun Sep 12, 2010 1:30 am



Seeders: 14423
Leechers: 7705


Green Zone (2010) DVDRip XviD-MAX

Format : AVI
Format/Info : Audio Video Interleave
File size : 1.37 GiB
Duration : 1h 54mn
Overall bit rate : 1 703 Kbps
Writing application : VirtualDubMod 1.5.10.2 (build 2542/release)
Writing library : VirtualDubMod build 2542/release
Original source form : MAX TORRENTZ
Copyright : SIGISMUNT

Video
ID : 0
Format : MPEG-4 Visual
Format profile : AdvancedSimple@L5
Format settings, BVOP : Yes
Format settings, QPel : No
Format settings, GMC : No warppoints
Format settings, Matrix : Default (MPEG)
Muxing mode : Packed bitstream
Codec ID : XVID
Codec ID/Hint : XviD
Duration : 1h 54mn
Bit rate : 1 246 Kbps
Width : 640 pixels
Height : 272 pixels
Display aspect ratio : 2.35:1
Frame rate : 23.976 fps
Resolution : 24 bits
Colorimetry : 4:2:0
Scan type : Progressive
Bits/(Pixel*Frame) : 0.299
Stream size : 1.00 GiB (73%)
Writing library : XviD 1.2.1 (UTC 2008-12-04)

Audio
ID : 1
Format : AC-3
Format/Info : Audio Coding 3
Codec ID : 2000
Duration : 1h 54mn
Bit rate mode : Constant
Bit rate : 448 Kbps
Channel(s) : 6 channels
Channel positions : Front: L C R, Surround: L R, LFE
Sampling rate : 48.0 KHz
Stream size : 368 MiB (26%)
Alignment : Split accross interleaves
Interleave, duration : 42 ms (1.00 video frame)
Interleave, preload duration : 500 ms

DVDRip Ratings: Audio/Video/Movie 10/9.5/8

[You must be registered and logged in to see this link.]



Downloads

[You must be registered and logged in to see this link.]
Back to top Go down
 
[movie] Green Zone (2010) [DVDRip XviD-MAX]
View previous topic View next topic Back to top 
Page 1 of 1
 Similar topics
-
» Criss Angel Mindfreak Season (1-6) Complete DVDRip XviD-MiXED
» Brothers and Sisters Season (1-4) DVDRip XviD-MiXED
» Hanna-Adapt or Die 2011-DVDRip
» 2010 Bulwer-Lytton Fiction Contest Winners
» Koj yog leej twg Movie Kaus Lim, tu siab heev...

Permissions in this forum:You cannot reply to topics in this forum
PRINCE ZAMAN KAKAR  :: (¯`·¸•´¯) Entertainment Section (¯`·¸•´¯) :: - ––––•(-• Hollywood Torrent Movies •-)•–––– --
Jump to: